When Harry Met Sally 1989 REMASTERED 720p BrRip x265 HEVCBay torrent download

seeders: 84
leechers: 109
updated:
Added ago by g3m696 ***** in Movies
Torrent Downloaded 10 times.
Info Hash: D8BF51616ED0F8BBBDF3058E4F7D2912710B44BE


Torrent Files

When Harry Met Sally 1989 REMASTERED 720p BrRip x265 HEVCBay (Size: 432.0 MB)
  When Harry Met Sally 1989 REMASTERED 720p BrRip x265 HEVCBay 432.0 MB

Torrent Description



hevcbay.com

Code:

General
Unique ID : 248001860687635730256577099740519230514 (0xBA936BC518C12814BF23A56634DE6C32)
Complete name : When.Harry.Met.Sally.1989.REMASTERED.720p.BrRip.x265.HEVCBay.com.mkv
Format : Matroska
Format version : Version 4
File size : 432 MiB
Duration : 1 h 35 min
Overall bit rate : 632 kb/s
Movie name : When.Harry.Met.Sally.1989.REMASTERED.720p.BrRip.x265.HEVCBay.com.mkv
Encoded date : UTC 2019-02-10 11:17:23
Writing application : hevcbay
Writing library : hevcbay.com / Lavf58.22.100
Comment : Encoded by hevcbay.com
ENCODED-BY : hevcbay.com

Video
ID : 1
Format : HEVC
Format/Info : High Efficiency Video Coding
Format profile : [email protected]@Main
Codec ID : V_MPEGH/ISO/HEVC
Duration : 1 h 35 min
Bit rate : 580 kb/s
Width : 1 280 pixels
Height : 692 pixels
Display aspect ratio : 1.85:1
Frame rate mode : Constant
Frame rate : 23.976 (24000/1001) FPS
Color space : YUV
Chroma subsampling : 4:2:0
Bit depth : 8 bits
Bits/(Pixel*Frame) : 0.027
Stream size : 396 MiB (92%)
Writing library : Lavc58.42.102 libx265
Language : English
Default : Yes
Forced : No
Color range : Limited

Audio
ID : 2
Format : AAC LC SBR PS
Format/Info : Advanced Audio Codec Low Complexity with Spectral Band Replication and Parametric Stereo
Commercial name : HE-AACv2
Format settings : NBC
Codec ID : A_AAC-29
Duration : 1 h 35 min
Bit rate : 50.3 kb/s
Channel(s) : 2 channels
Channel layout : C
Sampling rate : 48.0 kHz
Frame rate : 23.438 FPS (2048 SPF)
Compression mode : Lossy
Delay relative to video : -148 ms
Stream size : 34.4 MiB (8%)
Writing library : Lavc58.42.102 libfdk_aac
Language : English
Default : Yes
Forced : No

Text #1
ID : 3
Format : UTF-8
Codec ID : S_TEXT/UTF8
Codec ID/Info : UTF-8 Plain Text
Duration : 1 h 33 min
Bit rate : 90 b/s
Count of elements : 2196
Stream size : 61.6 KiB (0%)
Title : Stripped SRT
Language : English
Default : No
Forced : No

Text #2
ID : 4
Format : UTF-8
Codec ID : S_TEXT/UTF8
Codec ID/Info : UTF-8 Plain Text
Duration : 1 h 35 min
Bit rate : 93 b/s
Count of elements : 2303
Stream size : 65.1 KiB (0%)
Title : SDH SRT
Language : English
Default : No
Forced : No








Related Torrents

torrent name size age seed leech
954.7 MB 26 seconds 282 248
341.6 MB 26 seconds 146 33
182.0 MB 8 minutes 530 81
181.1 MB 8 minutes 96 422
249.9 MB 8 minutes 658 219

Sharing Widget


Download torrent
432.0 MB
seeders:1214
leechers:386
When Harry Met Sally 1989 REMASTERED 720p BrRip x265 HEVCBay



To share this torrent use the code below and insert it into comments, status messages, forum posts or your signature.

Torrent: When Harry Met Sally 1989 REMASTERED 720p BrRip x265 HEVCBay

Comments

Latest Searches