Primal Fear 1996 720p BluRay x264 Eng Hindi AC3 DD 5 1 [Team SSX] torrent download

seeders: 452
leechers: 84
updated:
Added ago by DarkRelease ***** in Movies
Torrent Downloaded 10 times.
Info Hash: 45F93930A691E7C356FA32B86DCE37EA361EBE33


Torrent Files

Primal Fear 1996 720p BluRay x264 Eng-Hindi AC3 DD 5 1 [Team SSX] (Size: 1.1 GB)
  Primal Fear 1996 720p BluRay x264 Eng-Hindi AC3 DD 5 1 [Team SSX] 1.1 GB

Torrent Description





Primal Fear 1996 720p BluRay x264 Eng-Hindi AC3 DD 5.1 [Team SSX]






General

Format : Matroska
Format version : Version 4
File size : 1.12 GiB
Duration : 2 h 10 min
Overall bit rate : 1 229 kb/s
Movie name : Primal Fear 1996 720p BluRay x264 Eng-Hindi AC3 DD 5.1 [Team SSX]


Video
ID : 1
Format : AVC
Format/Info : Advanced Video Codec
Format profile : [email protected]
Format settings : CABAC / 5 Ref Frames
Format settings, CABAC : Yes
Format settings, RefFrames : 5 frames
Codec ID : V_MPEG4/ISO/AVC
Duration : 2 h 10 min
Bit rate : 556 kb/s
Width : 1 280 pixels
Height : 720 pixels
Display aspect ratio : 16:9
Frame rate mode : Constant
Frame rate : 23.976 (24000/1001) FPS
Color space : YUV
Chroma subsampling : 4:2:0
Bit depth : 8 bits
Scan type : Progressive
Bits/(Pixel*Frame) : 0.025
Stream size : 518 MiB (45%)
Title : [Team SSX]
Default : Yes
Forced : No

Audio #1
ID : 2
Format : AAC LC SBR
Format/Info : Advanced Audio Codec Low Complexity with Spectral Band Replication
Commercial name : HE-AAC
Format settings : Explicit
Codec ID : A_AAC-2
Duration : 2 h 10 min
Bit rate : 32.0 kb/s
Channel(s) : 2 channels
Channel layout : L R
Sampling rate : 48.0 kHz
Frame rate : 23.438 FPS (2048 SPF)
Compression mode : Lossy
Stream size : 29.8 MiB (3%)
Title : [Team SSX]
Language : English
Default : No
Forced : No

Audio #2
ID : 4
Format : E-AC-3
Format/Info : Enhanced AC-3
Commercial name : Dolby Digital Plus
Codec ID : A_EAC3
Duration : 2 h 10 min
Bit rate mode : Constant
Bit rate : 640 kb/s
Channel(s) : 6 channels
Channel layout : L R C LFE Ls Rs
Sampling rate : 48.0 kHz
Frame rate : 31.250 FPS (1536 SPF)
Compression mode : Lossy
Delay relative to video : 1 s 0 ms
Stream size : 597 MiB (52%)
Title : [Team SSX]
Language : Hindi
Service kind : Complete Main
Default : Yes
Forced : No

Text
ID : 3
Format : UTF-8
Codec ID : S_TEXT/UTF8
Codec ID/Info : UTF-8 Plain Text
Duration : 1 h 1 min
Bit rate : 70 b/s
Count of elements : 734
Stream size : 31.8 KiB (0%)
Title : [Team SSX]
Language : English
Default : No
Forced : No











Related Torrents

torrent name size age seed leech
169.2 MB 58 seconds 641 445
129.3 MB 58 seconds 287 412
265.9 MB 58 seconds 584 359
95.1 MB 58 seconds 626 344
177.7 MB 6 minutes 43 94

Sharing Widget


Download torrent
1.1 GB
seeders:1214
leechers:386
Primal Fear 1996 720p BluRay x264 Eng-Hindi AC3 DD 5 1 [Team SSX]



To share this torrent use the code below and insert it into comments, status messages, forum posts or your signature.

Torrent: Primal Fear 1996 720p BluRay x264 Eng-Hindi AC3 DD 5 1 [Team SSX]

Comments

Latest Searches