Only Connect S14E17 Motorheads v LARPers revittony torrent download

seeders: 1
leechers: 19
updated:
Added ago by revittony ***** in TV
Torrent Downloaded 10 times.
Info Hash: 657BE8762F1C606BE3034F8D140966235F9F9AB9


Torrent Files

Only Connect S14E17 Motorheads v LARPers revittony (Size: 390.5 MB)
  Only Connect S14E17 Motorheads v LARPers revittony 390.5 MB

Torrent Description



http://www.imdb.com/title/tt1294009



Format : MPEG-4
Format profile : Base Media
Codec ID : isom (isom/iso2/avc1/mp41)
File size : 342 MiB
Duration : 28 min 54 s
Overall bit rate : 1 652 kb/s


Video
ID : 1
Format : AVC
Format/Info : Advanced Video Codec
Format profile : [email protected]
Format settings : CABAC / 4 Ref Frames
Format settings, CABAC : Yes
Format settings, RefFrames : 4 frames
Format settings, GOP : M=8, N=96
Codec ID : avc1
Codec ID/Info : Advanced Video Coding
Duration : 28 min 54 s
Bit rate : 1 554 kb/s
Width : 960 pixels
Height : 540 pixels
Display aspect ratio : 16:9
Frame rate mode : Constant
Frame rate : 25.000 FPS
Color space : YUV
Chroma subsampling : 4:2:0
Bit depth : 8 bits
Scan type : Progressive
Bits/(Pixel*Frame) : 0.120
Stream size : 321 MiB (94%)
Color range : Limited
Color primaries : BT.709
Transfer characteristics : BT.709
Matrix coefficients : BT.709
Codec configuration box : avcC

Audio
ID : 2
Format : AAC LC SBR
Format/Info : Advanced Audio Codec Low Complexity with Spectral Band Replication
Commercial name : HE-AAC
Format settings : Implicit
Codec ID : mp4a-40-2
Duration : 28 min 54 s
Bit rate mode : Constant
Bit rate : 96.0 kb/s
Channel(s) : 2 channels
Channel layout : L R
Sampling rate : 48.0 kHz
Frame rate : 23.438 FPS (2048 SPF)
Compression mode : Lossy
Stream size : 19.6 MiB (6%)
Language : English
Default : Yes
Alternate group : 1



Related Torrents

torrent name size age seed leech
216.38 MB 6 minutes 247 114
16.45 GB 6 minutes 315 413
640.47 MB 6 minutes 201 211
324.22 MB 6 minutes 410 233
564.78 MB 6 minutes 5 17

Sharing Widget


Download torrent
390.5 MB
seeders:1214
leechers:386
Only Connect S14E17 Motorheads v LARPers revittony



To share this torrent use the code below and insert it into comments, status messages, forum posts or your signature.

Torrent: Only Connect S14E17 Motorheads v LARPers revittony

Comments

Latest Searches